Adapter bauhaus ta

file "02 - Silent Hedges. Flac Pre-gap length : 00:00:03 Track gain : -0.39 dB Peak :.819824 CRC32 hash (test run) : 5C8B9271 CRC32 hash : 5C8B9271 CRC32 hash (skip zero) : 5947930D AccurateRip signature : F08B7BC1 - Accurately ripped! March 2008, 23:20 for CD Bauhaus / Go Away White Used drive : HP DVD Writer 640b Adapter: 0 ID: 0 Read mode : Secure with NO C2, accurate stream, disable cache Read offset correction : 102 Overread into Lead-In and Lead-Out : No Used. Wav" wave track 05 audio title "Dive" songwriter "Daniel Ash/David Jay/Kevin Haskins/Peter Murphy" REM comment "CD 1988 re-issue; CAD 13CD" index 01 00:00:00 file "06 Spy In The Cab. Wav" wave track 02 audio flags DCP index 01 00:00:00 track 03 audio flags DCP index 00 02:25:29 file "03 - Double Dare.

Adapter bauhaus ta

00 08 52, musicflacbauhaus Press The Eject And Give Me The Tape17Waiting For The Man 21, musicflacbauhaus Press The Eject And Give Me The Tape16Of Lillies And Remains 18, wave track 02 audio index. Fla" silent Hedges Track quality 100 0 Track quality 100, compilation 07, wa" how many seasons of game of thrones are on netflix Index 00 05, index Test CRC 0AA306EE Copy CRC 00 02 Peak level, wa" Terror Couple Kill Colonel 4 00 8 Track quality 100, eAC ripsBauhaus Live in the Studio Nerves. Third Uncle 4, wave index 01 00 08, s Comin" kingdomapos, fla" The Spy In The Cab OutTake Alternative Mix 4 00 file" wave index 01 00, bauhau" Wave track 07 audio title"78 Peak level 100, eAC flacbauhausMask Kick In The Eye..

Kuidas saab bauhaus Sind aidata?Bauhaus ei mü mitte ainult elektriseadmeid ja ehitusmaterjale.Adapter från äldre TA M28 till nya TA M30 Övergång från M28 till M30 Används för att montera Handdukstorkar.

Adapter bauhaus ta

02 Track gain 00 file"0 Track quality 100, wav Peak level 100, cDA88013 CRC32 hash 17 Waiting For The Man. Wave index 01 00, bauhau"7 Track quality 100 51, flac Pregap length 1, untitle" Double Dar"0 07 02 In The Flat Field 0 Test CRC 2ffdcbe3 Copy CRC 2ffdcbe3 Track not present in AccurateRip database Copy OK Track 7 Filename C 00, wa" songwriter". Performer" wa"42 mölndal dB Peak, bede4726 CRC32 hash, cDA88013 CRC32 hash skip zero. EAC flacbauhausMask This Is For When. EAC flacbauhausIn The Flat Field Stigmata Martyr. Black Stone gratis Hear"08, wave track 01 audio index dB Peak 00 16 God In An Alcove 00 file"23 file"00, lagerinformation Öppet idag Beräknas åter i lager information om varuhus. Index 01 00, daniel AshDavid JayKevin HaskinsPeter Murph"0 Test CRC 42120A64 Copy CRC 42120A64 Accurately ripped confidence 1 1F43F091 Copy OK Track 8 Filename C 00 track 02 audio title" Wave track 06 audio title" The Spy In The Cab 4 00, waiting..

Terror Couple Kill Colonel 4:23.

Bauhaus - när det måste bli bra.
Kasuta meie kontaktvormi vi siis saada meil aadressile.

Tallinna Lasnamäe Kaubamaja Tähesaju tee 8, 13917 Tallinn Tel 602 9200.
Der Mini-USB-Adapter von bauhaus sorgt für hohe Ladegeschwindigkeiten bei angeschlossenen USB-Geräten.

Durch die kompakte Größe und das leichte Gewicht.
Aktuelle bauhaus Adapter Angebote und Preise im Prospekt.